Skip to main content

Dumpstaphunk Live at Gratitude Harvest Festival on 2013-09-07

Audio Preview

etree
Dumpstaphunk Live at Gratitude Harvest Festival on 2013-09-07




01 Blueswave
02 Do You Really Want To Funk With Me^
03 Dancing To The Truth
04 Everybody Wants Some
05 If I'm In Luck (I Just Might Get Picked Up)
06 They Don't Care
07 Living in World Gone Mad^
08 Lt. Dan >
09 Drum Solo >
10 Money Maker >
11 Public Service Announcement >
12 Vivrant Thing >
13 Immigrant Song jam >
14 Drums > Lt. Dan
15 banter
16 Reality of the Situation
17 Water^
18 banter/band intros
19 Color Blind#
20 crowd

Encore
21 One Nation Under A Groove^
22 Tony & Skerik outro

^ w/ Skerik on Sax
# w/ Nigel Hall On Keyboard


Collection Dumpstaphunk
Band/Artist Dumpstaphunk
Venue Gratitude Harvest Festival
Location Dartmouth, MA

Source Schoeps MK22/MK41>Sonosax SX-R4
Lineage WAV>USB>Macbook Pro>Audacity(mixing)>Wave Editor(tracking,fades,resample(izotope)/dither(mbit+)to 16 bit/44.1k)>XAct(FLAC 8,ffp,fix sbe)
Taped by Andy Murray
Transferred by Andy Murray

Notes

Dumpstaphunk
2013-09-07
Gratitude Harvest Festival
Dartmouth, MA

Mics were left of center at the soundboard

MK22s were NOS
MK41s were DIN

Source:
Schoeps mk41>KC5>CMC6>Sonosax SX-R4 &
Schoeps mk22>Nbob actives>Naiant PFAs>Sonosax SX-R4 &
Soundboard>Sonosax SX-R4
(24bit/48khz)

Lineage:
WAV>USB>Macbook Pro>Audacity(mixing)>Wave Editor(tracking,fades,resample(izotope)/dither(mbit+)to 16 bit/44.1k)>XAct(FLAC 8,ffp,fix sbe)

Taped by: Andy Murray
Transferred by: Andy Murray

1 Set

length expanded size cdr WAVE problems fmt ratio filename
5:08.32 54406508 B --- -- ----- wav 1.0000 dumpsta2013-09-07_mk22mk41mix_1644_d1t01.wav
6:12.17 65660828 B --- -- ----- wav 1.0000 dumpsta2013-09-07_mk22mk41mix_1644_d1t02.wav
4:40.56 49523756 B --- -- ----- wav 1.0000 dumpsta2013-09-07_mk22mk41mix_1644_d1t03.wav
6:56.28 73448300 B --- -- ----- wav 1.0000 dumpsta2013-09-07_mk22mk41mix_1644_d1t04.wav
6:18.47 66789788 B --- -- ----- wav 1.0000 dumpsta2013-09-07_mk22mk41mix_1644_d1t05.wav
5:27.52 57805148 B --- -- ----- wav 1.0000 dumpsta2013-09-07_mk22mk41mix_1644_d1t06.wav
6:37.74 70204892 B --- -- ----- wav 1.0000 dumpsta2013-09-07_mk22mk41mix_1644_d1t07.wav
4:35.02 48514748 B --- -- ----- wav 1.0000 dumpsta2013-09-07_mk22mk41mix_1644_d1t08.wav
2:58.60 31540364 B --- -- ----- wav 1.0000 dumpsta2013-09-07_mk22mk41mix_1644_d1t09.wav
2:36.11 27544316 B --- -- ----- wav 1.0000 dumpsta2013-09-07_mk22mk41mix_1644_d1t10.wav
1:28.73 15694940 B --- -- ----- wav 1.0000 dumpsta2013-09-07_mk22mk41mix_1644_d1t11.wav
1:59.31 21064556 B --- -- ----- wav 1.0000 dumpsta2013-09-07_mk22mk41mix_1644_d1t12.wav
1:09.54 12298652 B --- -- ----- wav 1.0000 dumpsta2013-09-07_mk22mk41mix_1644_d1t13.wav
0:48.60 8608364 B --- -- ----- wav 1.0000 dumpsta2013-09-07_mk22mk41mix_1644_d1t14.wav
1:49.69 19389932 B --- -- ----- wav 1.0000 dumpsta2013-09-07_mk22mk41mix_1644_d1t15.wav
4:01.72 42681788 B --- -- ----- wav 1.0000 dumpsta2013-09-07_mk22mk41mix_1644_d1t16.wav
5:44.47 60792188 B --- -- ----- wav 1.0000 dumpsta2013-09-07_mk22mk41mix_1644_d1t17.wav
1:19.55 14065004 B --- -- ----- wav 1.0000 dumpsta2013-09-07_mk22mk41mix_1644_d1t18.wav
6:21.71 67375436 B --- -- ----- wav 1.0000 dumpsta2013-09-07_mk22mk41mix_1644_d1t19.wav
2:59.71 31742636 B --- -- ----- wav 1.0000 dumpsta2013-09-07_mk22mk41mix_1644_d1t20.wav
8:32.00 90316844 B --- -- ----- wav 1.0000 dumpsta2013-09-07_mk22mk41mix_1644_d1t21.wav
1:50.49 19519292 B --- -- ----- wav 1.0000 dumpsta2013-09-07_mk22mk41mix_1644_d1t22.wav
89:39.56 948988280 B 1.0000 (22 files)

comment
Reviews

There are no reviews yet. Be the first one to write a review.
DOWNLOAD OPTIONS
In Collection
Dumpstaphunk
In Collection
Live Music Archive
Uploaded by
andyjah
on 9/13/2013
Views
82
SIMILAR ITEMS (based on metadata)
Dumpstaphunk
by Dumpstaphunk
etree
eye 64
favorite 0
comment 0
Source: Schoeps MK41>KC5>CMC6>Sonosax SX-R4(24bit/48khz)
Dumpstaphunk
by Dumpstaphunk
etree
eye 75
favorite 0
comment 0
Source: Schoeps MK41>KC5>CMC6>Sonosax SX-R4(24bit/48khz)
Dumpstaphunk
by Dumpstaphunk
etree
eye 157
favorite 0
comment 0
Source: Telefunken ELA M260 Hypers & AKG c480b/ck62 3'Split
Dumpstaphunk
by Dumpstaphunk
etree
eye 190
favorite 1
comment 0
Source: Busman BSC-1-> Naiant Littlebox (OT)-> Sony PCM-M10->Micro SD
Dumpstaphunk
etree
eye 115
favorite 0
comment 0
Source: source1: akg 481 > Lunatec V2 > Edirol R-44 > WAV (24/48k), source2: akg 482 (3' split) > Lunatec V2 > Edirol R-44 > WAV (24/48k)
Dumpstaphunk
by Dumpstaphunk
etree
eye 155
favorite 0
comment 0
Otis Grove
by Otis Grove
etree
eye 25
favorite 0
comment 0
Source: Schoeps MK41>KC5>CMC6>Sonosax SX-R4(24bit/48khz)
The Nephrok Allstars
by The Nephrok Allstars
etree
eye 40
favorite 0
comment 0
Source: Schoeps MK41/MK22>Sonosax SX-R4
The Nth Power
by The Nth Power
etree
eye 53
favorite 0
comment 0
Source: Schoeps MK41/MK22>Sonosax SX-R4
The Nth Power
by The Nth Power
etree
eye 186
favorite 0
comment 1
favoritefavoritefavoritefavorite ( 1 reviews )
Source: Schoeps MK41/MK22>Sonosax SX-R4